Logical-Portal.ru  
Меню сайта
Поиск
Категории раздела
Dark Psy-Trance [534]
Goa Trance [337]
Psy-Trance [3081]
Night-Psy [174]
Chiptune [0]
Psy-Prog [4638]
Psy-Tech [47]
Ambient [353]
Full On [876]
Suomi [27]
Label [12]
VA [995]
Artist [16]
WAV - FLAC [37]
Live-DJ Set-Mix [10]
TOP
[Label]
Multiplex Records Ди... (6)
[Artist]
California Sunshine ... (29)
[Label]
Sanskara Records Дис... (3)
[Dark Psy-Trance]
Aghori Tantrik - Rak... (11)
[Full On]
The Antidote - Skyla... (4)
[Psy-Prog]
VA - Emok Best Of My... (4)
[Full On]
Didrapest - Phsicode... (3)
[Psy-Trance]
Artha - Influencing ... (2)
[Psy-Prog]
VA - 5 Years of LFP ... (4)
[Night-Psy]
VA - The Madcap Circ... (0)
Block title
PsyFP


ваша ссылка




Всего материалов в каталоге:
Показано материалов:
[ Добавить материал ]

Главная » 2010 » Июнь » 3 » Ubar Tmar (Flac) Дискография
02:47
Ubar Tmar (Flac) Дискография

Ubar Tmar - Fusion 1997 Flac
Ubar Tmar - True 1998 Flac
Ubar Tmar - Live 1999 Flac
Ubar Tmar - Eigou Kaiki 2002 Flac
Ubartmar.com Macrometasomakosmos 2002 Flac
Uvantam.com Guri & Guru 2005 Flac

Number of Disk......: 06
Playtime............: 6:47:33
Format..............: Flac
Forma...............: CD
Bitrate.............: lossless kbps
Tracks..............: 06
Size................: 3,00 ГБ


Ubar Tmar - Fusion 1997 Flac


Artist: Ubar Tmar
Album: Fusion
Cue: yes
Time: 1:11:09
Tracks: 1
Label: BooM! Records
Catalog: BOOM CD 002
Format: Flac
Country: Netherlands
Released: Oct 1997
Genre: Goa Trance
Style: Goa Trance
content: .jpg.cue.txt.log.sfv
Bitrate: 995
size: 580 МБ

Tracklisting:

1.Welcome To Our Space
2.Flying Saucer Landing (Dancing Yoda Mix)
3.Transformer Synthesizer
4.Electric Voodoo Man
5.Eternal Return
6.When The Light Is Gone (Live At Arasaki Beach, 96 Summer Of Love)
7.VS
8.3D Heaven
9.The Prophecy
10.The Tale Of Taketori


Exact Audio Copy V0.99 prebeta 4 from 23. January 2008

EAC extraction logfile from 6. February 2009, 20:45

Ubar Tmar / Fusion

Used drive : PIONEER DVD-RW DVR-111 Adapter: 3 ID: 0

Read mode : Secure
Utilize accurate stream : Yes
Defeat audio cache : Yes
Make use of C2 pointers : No

Read offset correction : 48
Overread into Lead-In and Lead-Out : No
Fill up missing offset samples with silence : Yes
Delete leading and trailing silent blocks : No
Null samples used in CRC calculations : Yes
Used interface : Installed external ASPI interface

Used output format : User Defined Encoder
Selected bitrate : 1024 kBit/s
Quality : High
Add ID3 tag : No
Command line compressor : C:\Program Files\Exact Audio Copy\Flac\flac.exe
Additional command line options : -8 -V -T "ARTIST=%a" -T "ALBUM=%g" -T "DATE=%y" -T "GENRE=%m" %s -o %d


TOC of the extracted CD

Track | Start | Length | Start sector | End sector
---------------------------------------------------------
1 | 0:00.00 | 0:51.20 | 0 | 3844
2 | 0:51.20 | 8:32.70 | 3845 | 42314
3 | 9:24.15 | 6:21.32 | 42315 | 70921
4 | 15:45.47 | 9:04.10 | 70922 | 111731
5 | 24:49.57 | 7:18.20 | 111732 | 144601
6 | 32:08.02 | 7:22.10 | 144602 | 177761
7 | 39:30.12 | 9:29.43 | 177762 | 220479
8 | 48:59.55 | 7:52.55 | 220480 | 255934
9 | 56:52.35 | 6:43.30 | 255935 | 286189
10 | 63:35.65 | 7:33.35 | 286190 | 320199


Range status and errors

Selected range

Filename D:\temp\nnm\Ubar Tmar - Fusion.wav

Peak level 99.2 %
Range quality 99.9 %
Test CRC 99FDF7C1
Copy CRC 99FDF7C1
Copy OK

No errors occurred


AccurateRip summary

Track 1 cannot be verified as accurate (confidence 2) [D9F3B82D], AccurateRip returned [146A5EC2]
Track 2 cannot be verified as accurate (confidence 2) [64AB807F], AccurateRip returned [9F74F012]
Track 3 cannot be verified as accurate (confidence 2) [C2891F51], AccurateRip returned [58A1B598]
Track 4 cannot be verified as accurate (confidence 2) [DE2F33FE], AccurateRip returned [0C1E6E79]
Track 5 cannot be verified as accurate (confidence 2) [A7B2E546], AccurateRip returned [596B37B4]
Track 6 cannot be verified as accurate (confidence 2) [52DD7513], AccurateRip returned [3D1FA247]
Track 7 cannot be verified as accurate (confidence 2) [61A0472B], AccurateRip returned [D1FD95CB]
Track 8 cannot be verified as accurate (confidence 2) [2E4E0BFD], AccurateRip returned [D0CC9FAC]
Track 9 cannot be verified as accurate (confidence 2) [C1B8D073], AccurateRip returned [9FC13B7B]
Track 10 cannot be verified as accurate (confidence 2) [0728AE6D], AccurateRip returned [C8B7135C]

No tracks could be verified as accurate
You may have a different pressing from the one(s) in the database

End of status report


Ubar Tmar - True 1998 Flac


Artist: Ubar Tmar
Album: True
Cue: yes
Time: 58:53
Tracks: 1
Label: Matsuri Productions
Catalog#: MP CD 18
Format: Flac
Country: UK
Released: 14 Sep 1998
Genre: Goa Trance
Style: Goa Trance
content: .jpg.Flac.txt.log.sfv.cue
Bitrate: 824
size: 411 МБ

Tracklisting:

1.Rhythmism 1
2.Rhythmism 2
3.Rhythmism 3
4.Rhythmism 4
5.Rhythmism 5
6.Rhythmism 6
7.Rhythmism 7


Exact Audio Copy V0.99 prebeta 4 from 23. January 2008

EAC extraction logfile from 6. February 2009, 21:07

Ubar Tmar / True

Used drive : PIONEER DVD-RW DVR-111 Adapter: 3 ID: 0

Read mode : Secure
Utilize accurate stream : Yes
Defeat audio cache : Yes
Make use of C2 pointers : No

Read offset correction : 48
Overread into Lead-In and Lead-Out : No
Fill up missing offset samples with silence : Yes
Delete leading and trailing silent blocks : No
Null samples used in CRC calculations : Yes
Used interface : Installed external ASPI interface

Used output format : User Defined Encoder
Selected bitrate : 1024 kBit/s
Quality : High
Add ID3 tag : No
Command line compressor : C:\Program Files\Exact Audio Copy\Flac\flac.exe
Additional command line options : -8 -V -T "ARTIST=%a" -T "ALBUM=%g" -T "DATE=%y" -T "GENRE=%m" %s -o %d


TOC of the extracted CD

Track | Start | Length | Start sector | End sector
---------------------------------------------------------
1 | 0:00.00 | 9:13.02 | 0 | 41476
2 | 9:13.02 | 7:47.28 | 41477 | 76529
3 | 17:00.30 | 9:08.47 | 76530 | 117676
4 | 26:09.02 | 8:58.18 | 117677 | 158044
5 | 35:07.20 | 5:55.00 | 158045 | 184669
6 | 41:02.20 | 10:51.12 | 184670 | 233506
7 | 51:53.32 | 7:00.00 | 233507 | 265006


Range status and errors

Selected range

Filename D:\temp\nnm\Ubar Tmar - True.wav

Peak level 99.8 %
Range quality 100.0 %
Test CRC 78E834EA
Copy CRC 78E834EA
Copy OK

No errors occurred


AccurateRip summary

Track 1 accurately ripped (confidence 5) [AC16FFC7]
Track 2 accurately ripped (confidence 5) [1EDDC9B7]
Track 3 accurately ripped (confidence 5) [3794D177]
Track 4 accurately ripped (confidence 5) [176E3A5D]
Track 5 accurately ripped (confidence 5) [E0C345FD]
Track 6 accurately ripped (confidence 5) [17408DB4]
Track 7 accurately ripped (confidence 5) [D46621CD]

All tracks accurately ripped

End of status report


Ubar Tmar - Live 1999 Flac


Artist: Ubar Tmar
Album: Live
Cue: yes
Time: 1:01:29
Tracks: 1
Label: Equinox
Catalog#: EQ CD 08
Format: CD, Album
Country: Japan
Released: 1999
Genre: Goa Trance
Style: Goa Trance, Psy-Trance
content: .FLAC.TXT.LOG.cue.sfv
Bitrate: 864
size: 429 МБ

Tracklisting:

1.Rhythmism 1 (Live)
2.Rhythmism 5 (Live)
3.C13H18N2O Pt. 4 (Live)
4.Rhythmism 6 (Live)
5.C13H18N2O Pt. 1 (Live)
6.C13H18N2O Pt. 2 (Live)
7.C13H18N2O Pt. 3 (Live)


Exact Audio Copy V0.99 prebeta 4 from 23. January 2008

EAC extraction logfile from 30. January 2009, 19:40

Ubar Tmar / Live

Used drive : PIONEER DVD-RW DVR-111 Adapter: 3 ID: 0

Read mode : Secure
Utilize accurate stream : Yes
Defeat audio cache : Yes
Make use of C2 pointers : No

Read offset correction : 48
Overread into Lead-In and Lead-Out : No
Fill up missing offset samples with silence : Yes
Delete leading and trailing silent blocks : No
Null samples used in CRC calculations : Yes
Used interface : Installed external ASPI interface

Used output format : User Defined Encoder
Selected bitrate : 1024 kBit/s
Quality : High
Add ID3 tag : No
Command line compressor : C:\Program Files\Exact Audio Copy\Flac\flac.exe
Additional command line options : -8 -V -T "ARTIST=%a" -T "ALBUM=%g" -T "DATE=%y" -T "GENRE=%m" %s -o %d


TOC of the extracted CD

Track | Start | Length | Start sector | End sector
---------------------------------------------------------
1 | 0:00.00 | 8:25.52 | 0 | 37926
2 | 8:25.52 | 6:46.53 | 37927 | 68429
3 | 15:12.30 | 6:54.22 | 68430 | 99501
4 | 22:06.52 | 11:25.08 | 99502 | 150884
5 | 33:31.60 | 7:42.12 | 150885 | 185546
6 | 41:13.72 | 9:18.23 | 185547 | 227419
7 | 50:32.20 | 10:57.05 | 227420 | 276699


Range status and errors

Selected range

Filename D:\temp\nnm\Ubar Tmar - Live.wav

Peak level 100.0 %
Range quality 100.0 %
Test CRC 838B4027
Copy CRC 838B4027
Copy OK

No errors occurred


AccurateRip summary

Track 1 not present in database
Track 2 not present in database
Track 3 not present in database
Track 4 not present in database
Track 5 not present in database
Track 6 not present in database
Track 7 not present in database

None of the tracks are present in the AccurateRip database

End of status report


Ubar Tmar - Eigou Kaiki 2002 Flac


Artist: Ubar Tmar
Album: Eigou Kaiki
Cue: yes
Time: 1:14:22
Label: Panorama Records
Format: FLAC
Country: Japan
Tracks: 1
Released: 07 Jul 2002
Genre: Goa Trance
Style: Goa Trance
content: .jpg.txt.log.flac.cue.sfv
Bitrate: 930
size: 518 МБ

Tracklisting

1.Cosmo Drome
2.Souran-Bushi
3.Spinol
4.Monkey Magic
5.Feel Love
6.Free Fall Boogie
7.Yellow Yoga
8.Eigou Kaiki
9.Breath


AUDIOCHECKER v2.0 beta (build 457) - by Dester - opdester@freemail.hu
~~~~~~~~~~~~~~~~~~~~~~~~~~~~~~~~~~
-=== DO NOT EDIT THIS FILE! ===-

Path: ...\Ubar Tmar - Eigou Kaiki[Panorama Records, 2002]

1 -=- Ubar Tmar - Eigou Kaiki.flac -=- CDDA (100%)

137160676


Exact Audio Copy V0.99 prebeta 4 from 23. January 2008

EAC extraction logfile from 6. February 2009, 22:03

Ubar Tmar / Eigou Kaiki

Used drive : PIONEER DVD-RW DVR-111 Adapter: 3 ID: 0

Read mode : Secure
Utilize accurate stream : Yes
Defeat audio cache : Yes
Make use of C2 pointers : No

Read offset correction : 48
Overread into Lead-In and Lead-Out : No
Fill up missing offset samples with silence : Yes
Delete leading and trailing silent blocks : No
Null samples used in CRC calculations : Yes
Used interface : Installed external ASPI interface

Used output format : User Defined Encoder
Selected bitrate : 1024 kBit/s
Quality : High
Add ID3 tag : No
Command line compressor : C:\Program Files\Exact Audio Copy\Flac\flac.exe
Additional command line options : -8 -V -T "ARTIST=%a" -T "ALBUM=%g" -T "DATE=%y" -T "GENRE=%m" %s -o %d


TOC of the extracted CD

Track | Start | Length | Start sector | End sector
---------------------------------------------------------
1 | 0:00.00 | 8:32.60 | 0 | 38459
2 | 8:32.60 | 5:56.50 | 38460 | 65209
3 | 14:29.35 | 8:16.25 | 65210 | 102434
4 | 22:45.60 | 8:30.42 | 102435 | 140726
5 | 31:16.27 | 6:41.33 | 140727 | 170834
6 | 37:57.60 | 8:06.50 | 170835 | 207334
7 | 46:04.35 | 9:50.47 | 207335 | 251631
8 | 55:55.07 | 10:46.53 | 251632 | 300134
9 | 66:41.60 | 7:41.02 | 300135 | 334711


Range status and errors

Selected range

Filename D:\temp\nnm\Ubar Tmar - Eigou Kaiki.wav

Peak level 99.6 %
Range quality 100.0 %
Test CRC F6B38B79
Copy CRC F6B38B79
Copy OK

No errors occurred


AccurateRip summary

Track 1 not present in database
Track 2 not present in database
Track 3 not present in database
Track 4 not present in database
Track 5 not present in database
Track 6 not present in database
Track 7 not present in database
Track 8 not present in database
Track 9 not present in database

None of the tracks are present in the AccurateRip database

End of status report


Ubartmar.com Macrometasomakosmos 2002 Flac


Artist: Ubartmar.com
Album: Macrometasomakosmos
Cue: yes
Time: 1:09:43
Tracks: 1
Label: Panorama Records
Catalog: PAN-0005
Format: Flac
Country: Japan
Released: 2002
Genre: psychedelic
Style: Psy-Trance, Goa Trance
content: .log.flac.txt.cue.sfv
Bitrate: 921
size: 513 МБ

Tracklisting:

1.Macrometasomakosmos
2.Macrometasomakosmos
3.Macrometasomakosmos
4.Macrometasomakosmos
5.Macrometasomakosmos
6.Macrometasomakosmos
7.Macrometasomakosmos
8.Macrometasomakosmos
9.Macrometasomakosmos
10.Macrometasomakosmos
11.Macrometasomakosmos
12.Macrometasomakosmos
13.Macrometasomakosmos
14.Macrometasomakosmos
15.Macrometasomakosmos
16.Macrometasomakosmos
17.Macrometasomakosmos
18.Macrometasomakosmos
19.Macrometasomakosmos
20.Macrometasomakosmos
21.Macrometasomakosmos
22.Macrometasomakosmos
23.Macrometasomakosmos
24.Macrometasomakosmos
25.Macrometasomakosmos
26.Macrometasomakosmos
27.Macrometasomakosmos
28.Macrometasomakosmos
29.Macrometasomakosmos
30.Macrometasomakosmos
31.Macrometasomakosmos
32.Macrometasomakosmos
33.Macrometasomakosmos
34.Macrometasomakosmos
35.Macrometasomakosmos
36.Macrometasomakosmos
37.Macrometasomakosmos
38.Macrometasomakosmos
39.Macrometasomakosmos
40.Macrometasomakosmos
41.Macrometasomakosmos
42.Macrometasomakosmos
43.Macrometasomakosmos
44.Macrometasomakosmos
45.Macrometasomakosmos
46.Macrometasomakosmos
47.Macrometasomakosmos
48.Macrometasomakosmos
49.Macrometasomakosmos
50.Macrometasomakosmos
51.Macrometasomakosmos
52.Macrometasomakosmos
53.Macrometasomakosmos
54.Macrometasomakosmos
55.Macrometasomakosmos
56.Macrometasomakosmos
57.Macrometasomakosmos
58.Macrometasomakosmos
59.Macrometasomakosmos
60.Macrometasomakosmos
61.Macrometasomakosmos
62.Macrometasomakosmos
63.Macrometasomakosmos
64.Macrometasomakosmos
65.Macrometasomakosmos
66.Macrometasomakosmos
67.Macrometasomakosmos
68.Macrometasomakosmos
69.Macrometasomakosmos
70.Macrometasomakosmos
71.Macrometasomakosmos
72.Macrometasomakosmos
73.Macrometasomakosmos
74.Macrometasomakosmos
75.Macrometasomakosmos
76.Macrometasomakosmos
77.Macrometasomakosmos
78.Macrometasomakosmos
79.Macrometasomakosmos
80.Macrometasomakosmos
81.Macrometasomakosmos
82.Macrometasomakosmos
83.Macrometasomakosmos
84.Macrometasomakosmos
85.Macrometasomakosmos
86.Macrometasomakosmos
87.Macrometasomakosmos
88.Macrometasomakosmos
89.Macrometasomakosmos


Exact Audio Copy V0.99 prebeta 4 from 23. January 2008

EAC extraction logfile from 6. February 2009, 21:36

Ubartmar.com / Macrometasomakosmos

Used drive : PIONEER DVD-RW DVR-111 Adapter: 3 ID: 0

Read mode : Secure
Utilize accurate stream : Yes
Defeat audio cache : Yes
Make use of C2 pointers : No

Read offset correction : 48
Overread into Lead-In and Lead-Out : No
Fill up missing offset samples with silence : Yes
Delete leading and trailing silent blocks : No
Null samples used in CRC calculations : Yes
Used interface : Installed external ASPI interface

Used output format : User Defined Encoder
Selected bitrate : 1024 kBit/s
Quality : High
Add ID3 tag : No
Command line compressor : C:\Program Files\Exact Audio Copy\Flac\flac.exe
Additional command line options : -8 -V -T "ARTIST=%a" -T "ALBUM=%g" -T "DATE=%y" -T "GENRE=%m" %s -o %d


TOC of the extracted CD

Track | Start | Length | Start sector | End sector
---------------------------------------------------------
1 | 0:00.00 | 0:56.00 | 0 | 4199
2 | 0:56.00 | 0:34.00 | 4200 | 6749
3 | 1:30.00 | 0:55.00 | 6750 | 10874
4 | 2:25.00 | 0:55.00 | 10875 | 14999
5 | 3:20.00 | 0:34.00 | 15000 | 17549
6 | 3:54.00 | 0:55.00 | 17550 | 21674
7 | 4:49.00 | 0:34.00 | 21675 | 24224
8 | 5:23.00 | 0:55.00 | 24225 | 28349
9 | 6:18.00 | 0:55.00 | 28350 | 32474
10 | 7:13.00 | 0:34.00 | 32475 | 35024
11 | 7:47.00 | 0:55.00 | 35025 | 39149
12 | 8:42.00 | 0:55.00 | 39150 | 43274
13 | 9:37.00 | 0:34.07 | 43275 | 45831
14 | 10:11.07 | 0:54.68 | 45832 | 49949
15 | 11:06.00 | 0:34.00 | 49950 | 52499
16 | 11:40.00 | 0:55.00 | 52500 | 56624
17 | 12:35.00 | 0:55.00 | 56625 | 60749
18 | 13:30.00 | 0:34.00 | 60750 | 63299
19 | 14:04.00 | 0:55.00 | 63300 | 67424
20 | 14:59.00 | 0:34.00 | 67425 | 69974
21 | 15:33.00 | 0:55.00 | 69975 | 74099
22 | 16:28.00 | 0:55.00 | 74100 | 78224
23 | 17:23.00 | 0:34.00 | 78225 | 80774
24 | 17:57.00 | 0:55.00 | 80775 | 84899
25 | 18:52.00 | 0:55.00 | 84900 | 89024
26 | 19:47.00 | 0:34.00 | 89025 | 91574
27 | 20:21.00 | 0:55.00 | 91575 | 95699
28 | 21:16.00 | 0:34.00 | 95700 | 98249
29 | 21:50.00 | 0:55.00 | 98250 | 102374
30 | 22:45.00 | 0:55.00 | 102375 | 106499
31 | 23:40.00 | 0:34.00 | 106500 | 109049
32 | 24:14.00 | 0:55.00 | 109050 | 113174
33 | 25:09.00 | 0:55.00 | 113175 | 117299
34 | 26:04.00 | 0:34.00 | 117300 | 119849
35 | 26:38.00 | 0:55.00 | 119850 | 123974
36 | 27:33.00 | 0:34.00 | 123975 | 126524
37 | 28:07.00 | 0:55.00 | 126525 | 130649
38 | 29:02.00 | 0:55.00 | 130650 | 134774
39 | 29:57.00 | 0:34.00 | 134775 | 137324
40 | 30:31.00 | 0:55.00 | 137325 | 141449
41 | 31:26.00 | 0:34.00 | 141450 | 143999
42 | 32:00.00 | 0:55.00 | 144000 | 148124
43 | 32:55.00 | 0:55.00 | 148125 | 152249
44 | 33:50.00 | 0:34.00 | 152250 | 154799
45 | 34:24.00 | 0:55.00 | 154800 | 158924
46 | 35:19.00 | 0:55.00 | 158925 | 163049
47 | 36:14.00 | 0:34.00 | 163050 | 165599
48 | 36:48.00 | 0:55.00 | 165600 | 169724
49 | 37:43.00 | 0:34.00 | 169725 | 172274
50 | 38:17.00 | 0:55.00 | 172275 | 176399
51 | 39:12.00 | 0:55.00 | 176400 | 180524
52 | 40:07.00 | 0:34.00 | 180525 | 183074
53 | 40:41.00 | 0:55.00 | 183075 | 187199
54 | 41:36.00 | 0:34.00 | 187200 | 189749
55 | 42:10.00 | 0:55.00 | 189750 | 193874
56 | 43:05.00 | 0:55.00 | 193875 | 197999
57 | 44:00.00 | 0:34.00 | 198000 | 200549
58 | 44:34.00 | 0:55.00 | 200550 | 204674
59 | 45:29.00 | 0:55.00 | 204675 | 208799
60 | 46:24.00 | 0:34.00 | 208800 | 211349
61 | 46:58.00 | 0:55.00 | 211350 | 215474
62 | 47:53.00 | 0:34.00 | 215475 | 218024
63 | 48:27.00 | 0:55.00 | 218025 | 222149
64 | 49:22.00 | 0:55.00 | 222150 | 226274
65 | 50:17.00 | 0:34.00 | 226275 | 228824
66 | 50:51.00 | 0:55.00 | 228825 | 232949
67 | 51:46.00 | 0:55.00 | 232950 | 237074
68 | 52:41.00 | 0:34.00 | 237075 | 239624
69 | 53:15.00 | 0:55.00 | 239625 | 243749
70 | 54:10.00 | 0:34.00 | 243750 | 246299
71 | 54:44.00 | 0:55.00 | 246300 | 250424
72 | 55:39.00 | 0:55.00 | 250425 | 254549
73 | 56:34.00 | 0:34.00 | 254550 | 257099
74 | 57:08.00 | 0:55.00 | 257100 | 261224
75 | 58:03.00 | 0:34.00 | 261225 | 263774
76 | 58:37.00 | 0:55.00 | 263775 | 267899
77 | 59:32.00 | 0:55.00 | 267900 | 272024
78 | 60:27.00 | 0:34.00 | 272025 | 274574
79 | 61:01.00 | 0:55.00 | 274575 | 278699
80 | 61:56.00 | 0:55.00 | 278700 | 282824
81 | 62:51.00 | 0:34.00 | 282825 | 285374
82 | 63:25.00 | 0:55.00 | 285375 | 289499
83 | 64:20.00 | 0:34.00 | 289500 | 292049
84 | 64:54.00 | 0:55.00 | 292050 | 296174
85 | 65:49.00 | 0:55.00 | 296175 | 300299
86 | 66:44.00 | 0:34.00 | 300300 | 302849
87 | 67:18.00 | 0:55.00 | 302850 | 306974
88 | 68:13.00 | 0:55.00 | 306975 | 311099
89 | 69:08.00 | 0:35.00 | 311100 | 313724


Range status and errors

Selected range

Filename D:\temp\nnm\Ubartmar.com - Macrometasomakosmos.wav

Peak level 100.0 %
Range quality 99.9 %
Test CRC 43DFEA85
Copy CRC 43DFEA85
Copy OK

No errors occurred


AccurateRip summary

Track 1 not present in database
Track 2 not present in database
Track 3 not present in database
Track 4 not present in database
Track 5 not present in database
Track 6 not present in database
Track 7 not present in database
Track 8 not present in database
Track 9 not present in database
Track 10 not present in database
Track 11 not present in database
Track 12 not present in database
Track 13 not present in database
Track 14 not present in database
Track 15 not present in database
Track 16 not present in database
Track 17 not present in database
Track 18 not present in database
Track 19 not present in database
Track 20 not present in database
Track 21 not present in database
Track 22 not present in database
Track 23 not present in database
Track 24 not present in database
Track 25 not present in database
Track 26 not present in database
Track 27 not present in database
Track 28 not present in database
Track 29 not present in database
Track 30 not present in database
Track 31 not present in database
Track 32 not present in database
Track 33 not present in database
Track 34 not present in database
Track 35 not present in database
Track 36 not present in database
Track 37 not present in database
Track 38 not present in database
Track 39 not present in database
Track 40 not present in database
Track 41 not present in database
Track 42 not present in database
Track 43 not present in database
Track 44 not present in database
Track 45 not present in database
Track 46 not present in database
Track 47 not present in database
Track 48 not present in database
Track 49 not present in database
Track 50 not present in database
Track 51 not present in database
Track 52 not present in database
Track 53 not present in database
Track 54 not present in database
Track 55 not present in database
Track 56 not present in database
Track 57 not present in database
Track 58 not present in database
Track 59 not present in database
Track 60 not present in database
Track 61 not present in database
Track 62 not present in database
Track 63 not present in database
Track 64 not present in database
Track 65 not present in database
Track 66 not present in database
Track 67 not present in database
Track 68 not present in database
Track 69 not present in database
Track 70 not present in database
Track 71 not present in database
Track 72 not present in database
Track 73 not present in database
Track 74 not present in database
Track 75 not present in database
Track 76 not present in database
Track 77 not present in database
Track 78 not present in database
Track 79 not present in database
Track 80 not present in database
Track 81 not present in database
Track 82 not present in database
Track 83 not present in database
Track 84 not present in database
Track 85 not present in database
Track 86 not present in database
Track 87 not present in database
Track 88 not present in database
Track 89 not present in database

None of the tracks are present in the AccurateRip database

End of status report


Uvantam.com Guri & Guru 2005 Flac


Artist: Ubar Tmar
Album: Uvantam.com Guri & Guru
Cue: yes
Time: 1:11:57
Label: Panorama Records
Catalog : PAN-0009
Format: Flac
Track: 1
Country: Japan
Released: 19 Nov 2005
Genre: psychedelic
Style: Psy-Trance
content: .log .jpg .txt .sfv .cue .flac
Bitrate: 1015
size: 627 МБ

Tracklisting

1.What On Earth Is G+G?!?!
2.Beyond The Point Of No Return
3.6000 Miles From Guru
4.Of Course You Can Go Nuts!
5.Guri & Guru : An Odyssey
6.A Chestnut Gourmet Needs Discipline
7.Guru vs Guriemon
8.A Stopover Trip In The Vortex (The Ascension PJPII)
9."Guri & Guru" With Google
10.Guru & Gurio In The Schoolyard
11.Green Green, Are You Going Out?
12.In The Court Of The Crimson King


Exact Audio Copy V0.99 prebeta 4 from 23. January 2008

EAC extraction logfile from 6. February 2009, 20:23

Uvantam.com / Guri & Guru

Used drive : PIONEER DVD-RW DVR-111 Adapter: 3 ID: 0

Read mode : Secure
Utilize accurate stream : Yes
Defeat audio cache : Yes
Make use of C2 pointers : No

Read offset correction : 48
Overread into Lead-In and Lead-Out : No
Fill up missing offset samples with silence : Yes
Delete leading and trailing silent blocks : No
Null samples used in CRC calculations : Yes
Used interface : Installed external ASPI interface

Used output format : User Defined Encoder
Selected bitrate : 1024 kBit/s
Quality : High
Add ID3 tag : No
Command line compressor : C:\Program Files\Exact Audio Copy\Flac\flac.exe
Additional command line options : -8 -V -T "ARTIST=%a" -T "ALBUM=%g" -T "DATE=%y" -T "GENRE=%m" %s -o %d


TOC of the extracted CD

Track | Start | Length | Start sector | End sector
---------------------------------------------------------
1 | 0:00.00 | 8:07.55 | 0 | 36579
2 | 8:07.55 | 6:07.45 | 36580 | 64149
3 | 14:15.25 | 6:51.20 | 64150 | 94994
4 | 21:06.45 | 2:41.13 | 94995 | 107082
5 | 23:47.58 | 7:54.10 | 107083 | 142642
6 | 31:41.68 | 5:13.19 | 142643 | 166136
7 | 36:55.12 | 1:06.51 | 166137 | 171137
8 | 38:01.63 | 8:25.46 | 171138 | 209058
9 | 46:27.34 | 4:05.46 | 209059 | 227479
10 | 50:33.05 | 8:16.29 | 227480 | 264708
11 | 58:49.34 | 1:23.04 | 264709 | 270937
12 | 60:12.38 | 11:44.70 | 270938 | 323807


Range status and errors

Selected range

Filename D:\temp\nnm\Uvantam.com - Guri & Guru.wav

Peak level 97.7 %
Range quality 100.0 %
Test CRC ABE39C1D
Copy CRC ABE39C1D
Copy OK

No errors occurred


AccurateRip summary

Track 1 not present in database
Track 2 not present in database
Track 3 not present in database
Track 4 not present in database
Track 5 not present in database
Track 6 not present in database
Track 7 not present in database
Track 8 not present in database
Track 9 not present in database
Track 10 not present in database
Track 11 not present in database
Track 12 not present in database

None of the tracks are present in the AccurateRip database

End of status report


AUDIOCHECKER v2.0 beta (build 457) - by Dester - opdester@freemail.hu
~~~~~~~~~~~~~~~~~~~~~~~~~~~~~~~~~~
-=== DO NOT EDIT THIS FILE! ===-

Path: ...\2005 - Uvantam.com - Guri & Guru

1 -=- Uvantam.com - Guri & Guru.flac -=- CDDA (100%)

215967012

http://narod.ru/disk/21462567000/Ubar%20Tmar%20Flac.rar.html


Категория: Artist | Просмотров: 1698 | Добавил: эр-джей | Теги: 2005, 1997, 2002, 1998, flac, 1999 | Рейтинг: 5.0/13
Всего комментариев: 2
2  
holllla....
i really like this site!!!!!
thats relly crazy artist!!!!
if its posibolle to put new like its will be great

1  
music

Добавлять комментарии могут только зарегистрированные пользователи.
[ Регистрация | Вход ]
Профиль
проходимец
Гости
01:32
Donate
Календарь
Форма входа
Статистика
Наш опрос
Оцените мой сайт
Всего ответов: 283
Мини-чат
Архив записей
Block title
Block title
Flag Counter

Design ЭР-ДЖЕЙ | Copyright PsyFP © 2017 | Создать бесплатный сайт с uCoz