Logical-Portal.ru  
Меню сайта
Поиск
Категории раздела
Dark Psy-Trance [532]
Goa Trance [337]
Psy-Trance [3000]
Night-Psy [169]
Chiptune [0]
Psy-Prog [4539]
Psy-Tech [47]
Ambient [353]
Full On [873]
Suomi [27]
Label [12]
VA [995]
Artist [16]
WAV - FLAC [37]
Live-DJ Set-Mix [10]
TOP
[Label]
Multiplex Records Ди... (6)
[Artist]
California Sunshine ... (29)
[Label]
Sanskara Records Дис... (3)
[Dark Psy-Trance]
Aghori Tantrik - Rak... (11)
[Full On]
The Antidote - Skyla... (4)
[Psy-Prog]
VA - Emok Best Of My... (4)
[Full On]
Didrapest - Phsicode... (3)
[Psy-Trance]
Artha - Influencing ... (2)
[Psy-Prog]
VA - 5 Years of LFP ... (4)
[Night-Psy]
VA - The Madcap Circ... (0)
Block title
PsyFP


ваша ссылка




Всего материалов в каталоге:
Показано материалов:
[ Добавить материал ]

Главная » 2010 » Май » 30 » VA - Goa Trance 2 2001 Wav
17:58
VA - Goa Trance 2 2001 Wav

Artist...............: VA
Album................: Goa Trance2
Label................: Квадро
Genre................: Goa Trance
Style................: Goa Trance,Psy-Trance
Source...............: CD
Year.................: 2001
Ripper...............: EAC
Codec................: PCM
Version..............: WAV
Channels.............: 2 / 44100 hz
Tracks...............: 1 (cue +)
Playing Time.........: 01:02:39
Total Size...........: 746 МБ
Bitrate..............: 1411
Ripped by............: Psy-X aka Magnat
Included.............: .NFO.LOG.Wav.jpg.cue

Tracklisting

1.Insanity - Bad News
2.Neurotrauma - Psychodriver
3.Cosmic Control - My Piramid
4.Boogie Maniac - Boogie Car
5.Inferno - Thermo
6.Shuh-Mehr - Crying Meta
7.Fulltrance - Zero-Zero-Zero
8.Zone Of Relax - Under…
9.Istar - Quantocash

Exact Audio Copy V0.99 prebeta 4 from 23. January 2008

Отчёт EAC об извлечении, выполненном 25. августа 2009, 21:18

Various Artists / Goa Trance 2

Дисковод: PIONEER DVD-RW DVR-111D Adapter: 0 ID: 1

Режим чтения : Достоверность
Использование точного потока : Да
Отключение кэша аудио : Да
Использование указателей C2 : Нет

Коррекция смещения при чтении : 48
Способность читать области Lead-in и Lead-out : Нет
Заполнение пропущенных сэмплов тишиной : Да
Удаление блоков с тишиной в начале и конце : Нет
При вычислениях CRC использовались нулевые сэмплы : Да
Интерфейс : Установленный внешний ASPI-интерфейс

Выходной формат : Внутренние WAV-операции
Формат сэмплов : 44.100 Гц; 16 бит; стерео


TOC извлечённого CD

Трек | Старт | Длительность | Начальный сектор | Конечный сектор
---------------------------------------------------------------------
1 | 0:00.00 | 7:01.00 | 0 | 31574
2 | 7:01.00 | 6:27.62 | 31575 | 60661
3 | 13:28.62 | 5:12.11 | 60662 | 84072
4 | 18:40.73 | 4:36.13 | 84073 | 104785
5 | 23:17.11 | 6:48.33 | 104786 | 135418
6 | 30:05.44 | 6:42.09 | 135419 | 165577
7 | 36:47.53 | 8:48.65 | 165578 | 205242
8 | 45:36.43 | 6:14.26 | 205243 | 233318
9 | 51:50.69 | 10:48.18 | 233319 | 281936


Характеристики диапазона извлечения и сообщения об ошибках

Выбранный диапазон

Имя файла C:\Documents and Settings\Администратор\Рабочий стол\Various_Artists_-_Goa_Trance_2.wav

Пиковый уровень 100.0 %
Качество диапазона 100.0 %
CRC копии BBF2DD70
Копирование... OK

Ошибок не произошло


AccurateRip: сводка

Трек 1 нет в базе данных
Трек 2 нет в базе данных
Трек 3 нет в базе данных
Трек 4 нет в базе данных
Трек 5 нет в базе данных
Трек 6 нет в базе данных
Трек 7 нет в базе данных
Трек 8 нет в базе данных
Трек 9 нет в базе данных

Ни одного трека нет в базе AccurateRip

Конец отчёта

http://rghost.ru/1753533 pak-1

http://rghost.ru/1756390 pak-2

http://rghost.ru/1756527 pak-3

http://rghost.ru/1756558 pak-4

Категория: WAV - FLAC | Просмотров: 631 | Добавил: эр-джей | Теги: VA, 2001, Goa, wav | Рейтинг: 5.0/7
Всего комментариев: 4
4  
thx link wink

3  
Хорошо спасибо
ok thx

2  
до вечера линка ждите

1  
link please

Добавлять комментарии могут только зарегистрированные пользователи.
[ Регистрация | Вход ]
Профиль
проходимец
Гости
23:53
Donate
Календарь
Форма входа
Статистика
Наш опрос
Оцените мой сайт
Всего ответов: 283
Мини-чат
Архив записей
Block title
Block title
Flag Counter

Design ЭР-ДЖЕЙ | Copyright PsyFP © 2017 | Создать бесплатный сайт с uCoz